Membre


Partenaires

The Wedding Guest

The Wedding Guest
Qualité HDLight 1080p MULTI

The Wedding Guest
Télécharger The Wedding Guest en HD



Origine du film :Grande-Bretagne
Réalisateur(s) :Michael Winterbottom
Acteur(s) :Dev Patel, Radhika Apte, Jim Sarbh
Genre :Drame,Thriller,
Titre Original :The Wedding Guest



Un film de Michael Winterbottom qui se déroule en Inde, avec Dev Patel dans le premier rôle. NFO Show/hide text General Unique ID : 8842330079690176333926749855093970941 (0x6A6F8882CC22E9C729A9C71199957FD) Complete name : G:wdgGH1080HDLght-Zone.mkv Format : Matroska Format version : Version 4 File size : 1.73 GiB Duration : 1 h 36 min Overall bit rate : 2 568 kb/s Movie name : DEUXIO Encoded date : UTC 2019-08-20 05:27:07 Writing application : mkvmerge v36.0.0 ('Is That Jazz?') 32-bit Writing library : libebml v1.3.9 + libmatroska v1.5.2 Video ID : 1 Format : AVC Format/Info : Advanced Video Codec Format profile : [email protected] Format settings : CABAC / 4 Ref Frames Format settings, CABAC : Yes Format settings, RefFrames : 4 frames Codec ID : V_MPEG4/ISO/AVC Duration : 1 h 36 min Bit rate : 1 800 kb/s Width : 1 920 pixels Height : 784 pixels Display aspect ratio : 2.450 Frame rate mode : Constant Frame rate : 23.976 (24000/1001) FPS Color space : YUV Chroma subsampling : 4:2:0 Bit depth : 8 bits Scan type : Progressive Bits/(Pixel*Frame) : 0.050 Stream size : 1.21 GiB (70%) Writing library : x264 core 157 r2932 303c484 Encoding settings : cabac=1 / ref=3 / deblock=1:0:0 / analyse=0x3:0x113 / me=hex / subme=7 / psy=1 / psy_rd=1.00:0.00 / mixed_ref=1 / me_range=16 / chroma_me=1 / trellis=1 / 8x8dct=1 / cqm=0 / deadzone=21,11 / fast_pskip=1 / chroma_qp_offset=-2 / threads=24 / lookahead_threads=4 / sliced_threads=0 / nr=0 / decimate=1 / interlaced=0 / bluray_compat=0 / constrained_intra=0 / bframes=3 / b_pyramid=2 / b_adapt=1 / b_bias=0 / direct=1 / weightb=1 / open_gop=0 / weightp=2 / keyint=250 / keyint_min=23 / scenecut=40 / intra_refresh=0 / rc_lookahead=40 / rc=2pass / mbtree=1 / bitrate=1800 / ratetol=1.0 / qcomp=0.60 / qpmin=0 / qpmax=69 / qpstep=4 / cplxblur=20.0 / qblur=0.5 / ip_ratio=1.40 / aq=1:1.00 Language : English Default : Yes Forced : No Audio #1 ID : 2 Format : AC-3 Format/Info : Audio Coding 3 Commercial name : Dolby Digital Codec ID : A_AC3 Duration : 1 h 36 min Bit rate mode : Constant Bit rate : 384 kb/s Channel(s) : 6 channels Channel layout : L R C LFE Ls Rs Sampling rate : 48.0 kHz Frame rate : 31.250 FPS (1536 SPF) Bit depth : 16 bits Compression mode : Lossy Delay relative to video : -42 ms Stream size : 265 MiB (15%) Title : Français VFF Language : French Service kind : Complete Main Default : Yes Forced : No Audio #2 ID : 3 Format : AC-3 Format/Info : Audio Coding 3 Commercial name : Dolby Digital Codec ID : A_AC3 Duration : 1 h 36 min Bit rate mode : Constant Bit rate : 384 kb/s Channel(s) : 6 channels Channel layout : L R C LFE Ls Rs Sampling rate : 48.0 kHz Frame rate : 31.250 FPS (1536 SPF) Bit depth : 16 bits Compression mode : Lossy Delay relative to video : -42 ms Stream size : 265 MiB (15%) Title : Anglais Language : English Service kind : Complete Main Default : No Forced : No Text ID : 4 Format : UTF-8 Codec ID : S_TEXT/UTF8 Codec ID/Info : UTF-8 Plain Text Duration : 1 h 31 min Bit rate : 0 b/s Count of elements : 7 Stream size : 221 Bytes (0%) Title : FR Forcés Language : French Default : Yes Forced : Yes




Qualité/Format/Langue : HDLight 1080p MULTI





Lien de Téléchargement ULTRA RAPIDE (ANONYME&RAPIDE)



The.Wedding.Guest.2018.MULTI.1080p.HDRip.Light.x264.AC3-DEUXIO 1,7 Go

Liens De Téléchargement :


Publié : 20-08-2019, 01:25


Commentaires:


Information
Vous devez vous connectez ou vous inscrire pour participer aux commentaires.
Il n'y a pas encore de commentaire sur cette fiche.

Zone-Telechargement n'héberge aucun fichier. La loi francaise vous autorise à telecharger un fichier seulement si vous en possedez l'original. Ni Zone-Telechargement, ni nos hebergeurs, ni personne ne pourront êtres tenu responsables d'une mauvaise utilisation de ce site.